Last change 2020.03.01 14:20:52 / Time 2020.09.25 03:27:04

Music Database

My complete CD collection digitalized using differnent Linux tools in connection with remote CDDB databases.
These web pages give overview of content according to CDDB info.

cddb/de0f500e.txt

# xmcd CD database file generated by Grip 3.3.1
# 
# Track frame offsets:
#       150
#       21939
#       39694
#       59841
#       86486
#       106413
#       125037
#       149662
#       162946
#       183715
#       206978
#       227176
#       246015
#       265405
# 
# Disc length: 3922 seconds
# 
# Revision: 0
# Submitted via: Grip 3.3.1
# 
DISCID=de0f500e
DTITLE=Carabao / Ruam Hit Carabao Kwai Thong Vol3
DYEAR=2006
DGENRE=rock
DID3=17
TTITLE0=Kon lah fhun
TTITLE1=Samukkee prathed thai
TTITLE2=Nuk soo poo ying yai
TTITLE3=Yai sum arng
TTITLE4=Gum nun pooyai baan
TTITLE5=Wicha pae
TTITLE6=Charng hai
TTITLE7=Wihok plud tin
TTITLE8=Ruk nee mee tae ter
TTITLE9=Nai gor
TTITLE10=Che guwarah
TTITLE11=Karng kao gin gluay
TTITLE12=Rua taley
TTITLE13=Kwarn thai jai nueng diew
EXTD= YEAR: 2006
EXTT0=
EXTT1=
EXTT2=
EXTT3=
EXTT4=
EXTT5=
EXTT6=
EXTT7=
EXTT8=
EXTT9=
EXTT10=
EXTT11=
EXTT12=
EXTT13=
PLAYORDER=