Last change 2020.03.01 14:20:52 / Time 2021.12.01 15:39:39

Music Database

My complete CD collection digitalized using differnent Linux tools in connection with remote CDDB databases.
These web pages give overview of content according to CDDB info.

cddb/de0bec0f.txt

#
# Track frame offsets:
#	150
#	12883
#	27622
#	42440
#	60894
#	77042
#	94142
#	109261
#	124477
#	138278
#	155893
#	168373
#	185663
#	202152
#	215058
#
# Disc length: 3054 seconds
#
# Submitted via: cddb-tool 0.4.7
#
#blues,classical,country,data,folk,jazz,newage,reggae,rock,soundtrack,misc
#CATEGORY=misc
DISCID=de0bec0f
DTITLE=Geordie / All Of This
DYEAR=2012
DGENRE=
TTITLE0=Breaking Down
TTITLE1=Depend On Me
TTITLE2=If It Hadn't Been For Andy
TTITLE3=Yes You Do
TTITLE4=Leaving
TTITLE5=Go Your Way
TTITLE6=My Strawberry Surprice
TTITLE7=Life Is A Playground
TTITLE8=My Dad
TTITLE9=Joybringer
TTITLE10=Waiting
TTITLE11=Sail Away
TTITLE12=So Far So Good
TTITLE13=All Of This
TTITLE14=Hit House
EXTD=
EXTT0=
EXTT1=
EXTT2=
EXTT3=
EXTT4=
EXTT5=
EXTT6=
EXTT7=
EXTT8=
EXTT9=
EXTT10=
EXTT11=
EXTT12=
EXTT13=
EXTT14=
PLAYORDER=