Last change 2020.03.01 14:20:52 / Time 2021.10.18 10:28:12

Music Database

My complete CD collection digitalized using differnent Linux tools in connection with remote CDDB databases.
These web pages give overview of content according to CDDB info.

cddb/dc0f8110.txt

# xmcd CD database file generated by Grip 3.3.1
# 
# Track frame offsets:
#       150
#       22841
#       42785
#       60157
#       78498
#       95910
#       115341
#       130166
#       147163
#       166647
#       185145
#       203890
#       221612
#       241104
#       256379
#       276850
# 
# Disc length: 3971 seconds
# 
# Revision: 48
# Submitted via: Grip 3.3.1
# 
DISCID=dc0f8110
DTITLE=Texas / The Greatest Hits
DYEAR=2000
DGENRE=rock
DID3=17
TTITLE0=I Don't Want a Lover
TTITLE1=In Demand
TTITLE2=Say What You Want
TTITLE3=Summer Son
TTITLE4=Inner Smile
TTITLE5=So in Love With You
TTITLE6=Black Eyed Boy
TTITLE7=So Called Friend
TTITLE8=Everyday Now
TTITLE9=In Our Lifetime
TTITLE10=Halo
TTITLE11=Guitar Song
TTITLE12=Prayer for You
TTITLE13=When We Are Together
TTITLE14=Put Your Arms Around Me
TTITLE15=Say What You Want (All Day, Every Day) feat Method Man & TheRZA
EXTD=Año: 2000
EXTT0=
EXTT1=
EXTT2=
EXTT3=
EXTT4=
EXTT5=
EXTT6=
EXTT7=
EXTT8=
EXTT9=
EXTT10=
EXTT11=
EXTT12=
EXTT13=
EXTT14=
EXTT15=
PLAYORDER=