Last change 2020.03.01 14:20:52 / Time 2021.10.22 09:15:45

Music Database

My complete CD collection digitalized using differnent Linux tools in connection with remote CDDB databases.
These web pages give overview of content according to CDDB info.

cddb/dc0c5310.txt

# xmcd CD database file generated by Grip 3.3.1
# 
# Track frame offsets:
#       150
#       11580
#       26422
#       42085
#       58257
#       75910
#       93262
#       107090
#       118047
#       131327
#       147982
#       165417
#       178402
#       193752
#       211212
#       223270
# 
# Disc length: 3157 seconds
# 
# Revision: 2
# Submitted via: Grip 3.3.1
# 
DISCID=dc0c5310
DTITLE=Various / Dansktoppes 25 Aars Jubilaeums Party
DYEAR=1993
DGENRE=folk
DID3=13
TTITLE0=Sommer og sol
TTITLE1=Jeg ser altid lyst paa livet
TTITLE2=Bank tre gange
TTITLE3=Eviva España
TTITLE4=Jeg ringer  på fredag
TTITLE5=Aldri mer' må jeg se dig
TTITLE6=Rosen er rød min ven
TTITLE7=Flower Power tøj
TTITLE8=En lille ring af guld
TTITLE9=Hvis tårer var af guld
TTITLE10=Snart er du mer' end 17 år
TTITLE11=Balladen om fætter hans
TTITLE12=Herstedvester
TTITLE13=Vi skal gå hånd i hånd
TTITLE14=Mini midi maxi girl
TTITLE15=Hvor er det sted
EXTD=
EXTT0=Birthe Kjær
EXTT1=Lis og Per
EXTT2=Klaus & Servants
EXTT3=Elisabeth Edberg
EXTT4=Keld og Hila Heick
EXTT5=Lars Stryg & Royl Strings
EXTT6=Bjørn Tidmand
EXTT7=Ulla Pia
EXTT8=Kandis
EXTT9=Susanne Lana
EXTT10=Anette Klingenberg
EXTT11=Svanerne
EXTT12=Klauc & Servants
EXTT13=Keld og Hilda Heick
EXTT14=Bjørn Tidmand
EXTT15=Lars Stryg & Royal Strings
PLAYORDER=