Last change 2020.03.01 14:20:52 / Time 2021.12.01 16:20:22

Music Database

My complete CD collection digitalized using differnent Linux tools in connection with remote CDDB databases.
These web pages give overview of content according to CDDB info.

cddb/da12140f.txt

# xmcd CD database file generated by Grip 3.3.1
# 
# Track frame offsets:
#       150
#       21072
#       42377
#       68202
#       87787
#       118245
#       139955
#       161097
#       179305
#       205200
#       225320
#       245745
#       267460
#       297042
#       325077
# 
# Disc length: 4630 seconds
# 
# Revision: 26
# Submitted via: Grip 3.3.1
# 
DISCID=da12140f
DTITLE=Michael Jackson / History (CD2)
DYEAR=1995
DGENRE=blues
DID3=13
TTITLE0=Scream
TTITLE1=They Don't Care About Us
TTITLE2=Stranger In Moscow
TTITLE3=This Time Around
TTITLE4=Earth Song
TTITLE5=D.S.
TTITLE6=Money
TTITLE7=Come Together
TTITLE8=You Are Not Alone
TTITLE9=Childhood Theme [From Free Willy2]
TTITLE10=Tabloid Junkie
TTITLE11=2 Bad
TTITLE12=History
TTITLE13=Little Susie
TTITLE14=Smile
EXTD=
EXTT0=Artist: Janet Jackson; Michael Jackson\nComposer: James Harris
EXTT1=Composer: Michael Jackson
EXTT2=Composer: Michael Jackson
EXTT3=Composer: Bruce Swedien
EXTT4=Composer: Michael Jackson
EXTT5=Composer: Michael Jackson
EXTT6=Composer: Michael Jackson
EXTT7=Composer: John Lennon
EXTT8=Composer: R. Kelly
EXTT9=Composer: Michael Jackson
EXTT10=Composer: James Harris
EXTT11=Composer: Bruce Swedien
EXTT12=Composer: James Harris
EXTT13=Composer: Michael Jackson
EXTT14=Composer: Charlie Chaplin
PLAYORDER=