Last change 2020.03.01 14:20:52 / Time 2020.09.24 08:10:03

Music Database

My complete CD collection digitalized using differnent Linux tools in connection with remote CDDB databases.
These web pages give overview of content according to CDDB info.

cddb/da120f0f.txt

# xmcd CD database file generated by Grip 3.3.1
# 
# Track frame offsets:
#       150
#       19002
#       44852
#       65827
#       92330
#       115407
#       142307
#       159127
#       188752
#       214272
#       238197
#       261957
#       287577
#       307630
#       325090
# 
# Disc length: 4625 seconds
# 
# Revision: 23
# Submitted via: Grip 3.3.1
# 
DISCID=da120f0f
DTITLE=Bon Jovi / Cross Road
DYEAR=1994
DGENRE=misc
DID3=17
TTITLE0=Livin' On A Prayer
TTITLE1=Keep The Faith
TTITLE2=Someday I'll Be Saturday Night
TTITLE3=Always
TTITLE4=Wanted Dead Or Alive
TTITLE5=Lay Your Hands On Me
TTITLE6=You Give Love A Bad Name
TTITLE7=Bed Of Roses
TTITLE8=Blaze Of Glory
TTITLE9=In These Arms
TTITLE10=Bad Medicine
TTITLE11=I'll Be There For You
TTITLE12=In & Out Of Love
TTITLE13=Runaway
TTITLE14=Never Say Goodbye
EXTD=YEAR: 1994
EXTT0=
EXTT1=
EXTT2=
EXTT3=
EXTT4=
EXTT5=
EXTT6=
EXTT7=
EXTT8=
EXTT9=
EXTT10=
EXTT11=
EXTT12=
EXTT13=
EXTT14=
PLAYORDER=