Last change 2020.03.01 14:20:52 / Time 2021.12.01 15:28:49

Music Database

My complete CD collection digitalized using differnent Linux tools in connection with remote CDDB databases.
These web pages give overview of content according to CDDB info.

cddb/da0f6210.txt

# xmcd CD database file generated by Grip 3.3.1
# 
# Track frame offsets:
#       150
#       31077
#       51192
#       67990
#       82870
#       96727
#       113620
#       129345
#       147082
#       163837
#       183932
#       200860
#       217695
#       239400
#       256115
#       271325
# 
# Disc length: 3940 seconds
# 
# Revision: 4
# Submitted via: Grip 3.3.1
# 
DISCID=da0f6210
DTITLE=De Black Fooss / 30 Jahre (CD1)
DYEAR=2000
DGENRE=folk
DID3=12
TTITLE0=Medley 2000
TTITLE1=Rheinhotel
TTITLE2=Treck noch ens dat Kleid an
TTITLE3=Lange Samstag in d'r City
TTITLE4=Kaffeebud
TTITLE5=Ming eetste Fründin
TTITLE6=Wenn et Leech usjing em Roxy
TTITLE7=Die kleine Saache
TTITLE8=Oh Herr
TTITLE9=Sirtaki
TTITLE10=Es gibt ein Leben nach dem Tod
TTITLE11=Lappa Loma de Mallorca
TTITLE12=Dat Wasser vun Kölle
TTITLE13=Unsere Stammbaum
TTITLE14=Polterovend
TTITLE15=Leev Linda Lou
EXTD=Live in der Kölnarena - Sylvester 2000
EXTT0=
EXTT1=
EXTT2=
EXTT3=
EXTT4=
EXTT5=
EXTT6=
EXTT7=
EXTT8=
EXTT9=
EXTT10=
EXTT11=
EXTT12=
EXTT13=
EXTT14=
EXTT15=
PLAYORDER=