Last change 2020.03.01 14:20:52 / Time 2021.12.01 16:15:59

Music Database

My complete CD collection digitalized using differnent Linux tools in connection with remote CDDB databases.
These web pages give overview of content according to CDDB info.

cddb/d80f960e.txt

# xmcd CD database file generated by Grip 3.3.1
# 
# Track frame offsets:
#       150
#       20627
#       41961
#       64053
#       82712
#       104262
#       125944
#       146149
#       165781
#       192436
#       211980
#       239553
#       261530
#       280452
# 
# Disc length: 3992 seconds
# 
# Revision: 2
# Submitted via: Grip 3.3.1
# 
DISCID=d80f960e
DTITLE=Carabao / Ruam Hit Carabao Kwai Thong Vol1
DYEAR=2000
DGENRE=rock
DID3=12
TTITLE0=Luang Por Koon
TTITLE1=Wani Pok
TTITLE2=Khon Jon Poo Ying Yai
TTITLE3=Made In Thailand
TTITLE4=No Problam
TTITLE5=Jao Tark
TTITLE6=Bua Loy
TTITLE7=Talae Jai
TTITLE8=Rang Koi
TTITLE9=Ganja
TTITLE10=Loong Kee Mao
TTITLE11=Mae Sai
TTITLE12=Barb Bo-Ri-Sood
TTITLE13=Bah
EXTD= YEAR: 2000
EXTT0=
EXTT1=
EXTT2=
EXTT3=
EXTT4=
EXTT5=
EXTT6=
EXTT7=
EXTT8=
EXTT9=
EXTT10=
EXTT11=
EXTT12=
EXTT13=
PLAYORDER=