Last change 2020.03.01 14:20:52 / Time 2020.09.24 08:03:05

Music Database

My complete CD collection digitalized using differnent Linux tools in connection with remote CDDB databases.
These web pages give overview of content according to CDDB info.

cddb/d7114211.txt

# xmcd CD database file generated by Grip 3.2.0
# 
# Track frame offsets:
#       150
#       18755
#       35456
#       58588
#       77593
#       98330
#       123824
#       145387
#       161332
#       179982
#       195889
#       217911
#       234192
#       254779
#       284358
#       302364
#       306181
# 
# Disc length: 4420 seconds
# 
# Revision: 4
# Submitted via: Grip 3.2.0
# 
DISCID=d7114211
DTITLE=Björn Afzelius / Definitivt
DYEAR=1998
DGENRE=folk
DID3=80
TTITLE0=Sång till friheten
TTITLE1=Fröken Julie
TTITLE2=Don Quixote
TTITLE3=En kungens man
TTITLE4=Till min kära
TTITLE5=Så vill jag bli
TTITLE6=Valet
TTITLE7=Dockhemmet
TTITLE8=Isabelle
TTITLE9=Älska mej nu
TTITLE10=Juanita
TTITLE11=Ikaros
TTITLE12=Tusen bitar
TTITLE13=Född fri
TTITLE14=Det enda jag vill ha
TTITLE15=Jesus gick på vattnet
TTITLE16=Ljuset
EXTD=record number CMC 6216-2
EXTT0=
EXTT1=
EXTT2=\n
EXTT3=
EXTT4=
EXTT5=
EXTT6=
EXTT7=
EXTT8=
EXTT9=
EXTT10=
EXTT11=
EXTT12=
EXTT13=
EXTT14=
EXTT15=
EXTT16=
PLAYORDER=