Last change 2020.03.01 14:20:52 / Time 2020.09.19 14:50:08

Music Database

My complete CD collection digitalized using differnent Linux tools in connection with remote CDDB databases.
These web pages give overview of content according to CDDB info.

cddb/d7111710.txt

# xmcd CD database file generated by Grip 3.0.7
# 
# Track frame offsets:
#       150
#       21870
#       41460
#       63010
#       80782
#       98142
#       118907
#       138685
#       168775
#       184742
#       204082
#       222100
#       243460
#       263417
#       281402
#       302635
# 
# Disc length: 4377 seconds
# 
# Revision: 23
# Submitted via: Grip 3.0.7
# 
DISCID=d7111710
DTITLE=Simple Minds / Glittering Prize
DYEAR=1992
DGENRE=rock
DID3=17
TTITLE0=Waterfront
TTITLE1=Don't You (Forget About Me)
TTITLE2=Alive And Kicking
TTITLE3=Sanctify Yourself
TTITLE4=Love Song
TTITLE5=Someone, Somewhere In Summertime
TTITLE6=See The Lights
TTITLE7=Belfast Child
TTITLE8=The American
TTITLE9=All The Things She Said
TTITLE10=Promised You A Miracle
TTITLE11=Ghostdancing
TTITLE12=Speed Your Love To Me
TTITLE13=Glittering Prize
TTITLE14=Let There Be Love
TTITLE15=Mandela Day
EXTD=YEAR: 1992
EXTT0=
EXTT1=
EXTT2=
EXTT3=
EXTT4=
EXTT5=
EXTT6=
EXTT7=
EXTT8=
EXTT9=
EXTT10=
EXTT11=
EXTT12=
EXTT13=
EXTT14=
EXTT15=
PLAYORDER=