Last change 2020.03.01 14:20:52 / Time 2021.12.01 15:08:19

Music Database

My complete CD collection digitalized using differnent Linux tools in connection with remote CDDB databases.
These web pages give overview of content according to CDDB info.

cddb/d710ad0d.txt

# xmcd CD database file generated by Grip 3.3.1
# 
# Track frame offsets:
#       150
#       26323
#       52305
#       73530
#       97490
#       127060
#       147118
#       191505
#       208648
#       222623
#       247858
#       267698
#       293583
# 
# Disc length: 4271 seconds
# 
# Revision: 20
# Submitted via: Grip 3.3.1
# 
DISCID=d710ad0d
DTITLE=Bon Jovi / Keep The Faith
DYEAR=1992
DGENRE=rock
DID3=17
TTITLE0=I Believe
TTITLE1=Keep The Faith
TTITLE2=I'll Sleep When I'm Dead
TTITLE3=In These Arms
TTITLE4=Bed Of Roses
TTITLE5=If I Was Your Mother
TTITLE6=Dry County
TTITLE7=Woman In Love
TTITLE8=Fear
TTITLE9=I Want You
TTITLE10=Blame It On The Love Of Rock 'N' Roll
TTITLE11=Little Bit Of Soul
TTITLE12=Save A Prayer
EXTD=YEAR: 1992
EXTT0=
EXTT1=
EXTT2=
EXTT3=
EXTT4=
EXTT5=
EXTT6=
EXTT7=
EXTT8=
EXTT9=
EXTT10=
EXTT11=
EXTT12=
PLAYORDER=