Last change 2020.03.01 14:20:52 / Time 2021.10.18 11:26:09

Music Database

My complete CD collection digitalized using differnent Linux tools in connection with remote CDDB databases.
These web pages give overview of content according to CDDB info.

cddb/d70eba11.txt

# xmcd CD database file generated by Grip 3.3.1
# 
# Track frame offsets:
#       150
#       22855
#       39177
#       67302
#       94717
#       110417
#       123692
#       135857
#       151925
#       167672
#       177250
#       197740
#       214927
#       225045
#       247635
#       261752
#       273437
# 
# Disc length: 3772 seconds
# 
# Revision: 4
# Processed by: cddbd v1.5.2PL0 Copyright (c) Steve Scherf et al.
# Submitted via: Grip 3.3.1
# 
DISCID=d70eba11
DTITLE=Various Artists / Guitar Collection CD1
DYEAR=1997
DGENRE=Rock
TTITLE0=Still Got The Blues
TTITLE1=Samba Pa Ti
TTITLE2=Private Investigations
TTITLE3=Layla
TTITLE4=Deer Hunter
TTITLE5=Johnny Guitar
TTITLE6=Wipe Out
TTITLE7=Chi Mai
TTITLE8=Need Your Love So Bad
TTITLE9=Wonderful Land
TTITLE10=Tears In Heaven
TTITLE11=Tommy
TTITLE12=Because They're Young
TTITLE13=Going Home
TTITLE14=Cocaine
TTITLE15=Foottrapper
TTITLE16=Walk, Don't Run
EXTD=
EXTT0=
EXTT1=
EXTT2=
EXTT3=
EXTT4=
EXTT5=
EXTT6=
EXTT7=
EXTT8=
EXTT9=
EXTT10=
EXTT11=
EXTT12=
EXTT13=
EXTT14=
EXTT15=
EXTT16=
PLAYORDER=
.