Last change 2020.03.01 14:20:52 / Time 2020.09.25 02:58:13

Music Database

My complete CD collection digitalized using differnent Linux tools in connection with remote CDDB databases.
These web pages give overview of content according to CDDB info.

cddb/d70e3611.txt

# xmcd CD database file generated by Grip 3.3.1
# 
# Track frame offsets:
#       150
#       20005
#       35985
#       52815
#       63755
#       78145
#       92150
#       109530
#       122977
#       136260
#       153795
#       166080
#       187907
#       202240
#       213015
#       243535
#       256515
# 
# Disc length: 3640 seconds
# 
# Revision: 3
# Submitted via: Grip 3.3.1
# 
DISCID=d70e3611
DTITLE=Various Artists / Guitar Collection CD2
DYEAR=1997
DGENRE=misc
DID3=12
TTITLE0=Sultans of Swing
TTITLE1=Knocking on Heaven's Door
TTITLE2=Money for Nothing
TTITLE3=FBI
TTITLE4=Albatross
TTITLE5=Love Hurts
TTITLE6=The Joker
TTITLE7=Apache
TTITLE8=Atlantis
TTITLE9=Brothers In Arms
TTITLE10=Rebel Rouser
TTITLE11=Wonderful Tonight
TTITLE12=Guitar Tango
TTITLE13=Dakota
TTITLE14=Oh Well (part 2)
TTITLE15=Sleepwalk
TTITLE16=Lay Down Sally
EXTD=
EXTT0=
EXTT1=
EXTT2=
EXTT3=
EXTT4=
EXTT5=
EXTT6=
EXTT7=
EXTT8=
EXTT9=
EXTT10=
EXTT11=
EXTT12=
EXTT13=
EXTT14=
EXTT15=
EXTT16=
PLAYORDER=