Last change 2020.03.01 14:20:52 / Time 2021.10.22 08:45:27

Music Database

My complete CD collection digitalized using differnent Linux tools in connection with remote CDDB databases.
These web pages give overview of content according to CDDB info.

cddb/d60ea80f.txt

# xmcd CD database file generated by Grip 3.0.7
# 
# Track frame offsets:
#       150
#       20330
#       37826
#       55356
#       74759
#       91124
#       107799
#       123588
#       143406
#       163769
#       182937
#       199925
#       220718
#       241766
#       261994
# 
# Disc length: 3754 seconds
# 
# Revision: 1
# Submitted via: Grip 3.0.7
# 
DISCID=d60ea80f
DTITLE=Various Artists / One Hit Wonders - CD8
DYEAR=
DGENRE=misc
DID3=12
TTITLE0=Climie Fisher / Love Changes (Everything)
TTITLE1=Sabrina / Boys
TTITLE2=Bobby McFerrin / Don't Worry Be Happy
TTITLE3=Poison / Every Rose Has Its Thorn
TTITLE4=Kim Appelby / Don't Worry
TTITLE5=Chesney Hawkes / The One And Only
TTITLE6=EMF / Unbelievable
TTITLE7=Wilson Phillips / Hold On
TTITLE8=Vanilla Ice / Ice Ice Baby
TTITLE9=MC Hammer / U Can't Touch This
TTITLE10=Divinyls / I touch Myself
TTITLE11=Charles & Eddie / Would I Lie To You
TTITLE12=Tasmin Archer / Sleeping Satellite
TTITLE13=Haddaway / What Is Love
TTITLE14=Joshua Kadison / Jessie
EXTD=
EXTT0=
EXTT1=
EXTT2=
EXTT3=
EXTT4=
EXTT5=
EXTT6=
EXTT7=
EXTT8=
EXTT9=
EXTT10=
EXTT11=
EXTT12=
EXTT13=
EXTT14=
PLAYORDER=