Last change 2020.03.01 14:20:52 / Time 2021.10.22 09:43:06

Music Database

My complete CD collection digitalized using differnent Linux tools in connection with remote CDDB databases.
These web pages give overview of content according to CDDB info.

cddb/d60e7f10.txt

# xmcd
# 
# Track frame offsets:
#     150
#     19183
#     40496
#     55207
#     70993
#     82764
#     99408
#     117419
#     133949
#     151249
#     163904
#     177222
#     188553
#     203696
#     218538
#     244795
# 
# Disc length: 3713
# 
# Revision: 2
# Processed by: cddbd v1.5.2PL0 Copyright (c) Steve Scherf et al.
# Submitted via: BonkEnc v1.0.6
# 
DISCID=d60e7f10
DTITLE=Various Artists / Greatest Ever Driving Songs 3
DYEAR=2007
DGENRE=Pop
TTITLE0=Free / All Right Now
TTITLE1=Lynyrd Skynyrd / Sweet Home Alabama
TTITLE2=Rainbow / Since You've Been Gone
TTITLE3=Bachman-Turner Overdrive / You Ain't Seen Nothing Yet
TTITLE4=Troggs / Wild Thing
TTITLE5=Thin Lizzy / Whiskey In The Jar
TTITLE6=Ocean Colour Scene / Hundred Mile High City
TTITLE7=Reef / Place Your Hands
TTITLE8=Roachford / Cuddly Toy
TTITLE9=Motorhead / Ace Of Spades
TTITLE10=Tenpole Tudor / Swords Of A Thousand Men
TTITLE11=Ram Jam / Black Betty
TTITLE12=Smith, Patti Group / Because The Night
TTITLE13=Beck, Robin / First Time
TTITLE14=Tyler, Bonnie / Holding Out For A Hero
TTITLE15=Allman Brothers / Jessica
EXTD=
EXTT0=
EXTT1=
EXTT2=
EXTT3=
EXTT4=
EXTT5=
EXTT6=
EXTT7=
EXTT8=
EXTT9=
EXTT10=
EXTT11=
EXTT12=
EXTT13=
EXTT14=
EXTT15=
PLAYORDER=
.