Last change 2020.03.01 14:20:52 / Time 2021.10.22 10:06:46

Music Database

My complete CD collection digitalized using differnent Linux tools in connection with remote CDDB databases.
These web pages give overview of content according to CDDB info.

cddb/d50e2d0d.txt

# xmcd
#
# Track frame offsets: 
#        150
#        22475
#        47205
#        61162
#        84392
#        99585
#        124497
#        149207
#        169222
#        186672
#        215412
#        236060
#        253947
#
# Disc length: 3631 seconds
#
# Revision: 21
# Processed by: cddbd v1.5.2PL0 Copyright (c) Steve Scherf et al.
# Submitted via: ExactAudioCopy v0.99pb3
#
DISCID=d50e2d0d
DTITLE=Mark Knopfler / Sailing To Philadelphia
DYEAR=2000
DGENRE=Country
TTITLE0=What It Is
TTITLE1=Sailing To Philadelphia
TTITLE2=Who's Your Baby Now
TTITLE3=Baloney Again
TTITLE4=The Last Laugh
TTITLE5=Silvertown Blues
TTITLE6=El Macho
TTITLE7=Prairie Wedding
TTITLE8=Wanderlust
TTITLE9=Speedway At Nazareth
TTITLE10=Junkie Doll
TTITLE11=Sands Of Nevada
TTITLE12=One More Matinee
EXTD=YEAR: 2000\n
EXTT0=
EXTT1=
EXTT2=
EXTT3=
EXTT4=
EXTT5=
EXTT6=
EXTT7=
EXTT8=
EXTT9=
EXTT10=
EXTT11=
EXTT12=
PLAYORDER=
.