Last change 2020.03.01 14:20:52 / Time 2021.10.18 11:42:10

Music Database

My complete CD collection digitalized using differnent Linux tools in connection with remote CDDB databases.
These web pages give overview of content according to CDDB info.

cddb/d309e110.txt

# xmcd CD database file generated by Grip 3.3.1
# 
# Track frame offsets:
#       182
#       15812
#       29445
#       38507
#       48492
#       64557
#       74897
#       88410
#       99042
#       111582
#       121532
#       132270
#       145320
#       155507
#       165945
#       176960
# 
# Disc length: 2531 seconds
# 
# Revision: 8
# Submitted via: Grip 3.3.1
# 
DISCID=d309e110
DTITLE=Various / The Sound Of Summer Vol. 1
DYEAR=1992
DGENRE=misc
DID3=11
TTITLE0=Mungo Jerry / In The Summertime
TTITLE1=Roy Orbison / Oh, Pretty Woman
TTITLE2=Beach Boys / Surfin' Safari
TTITLE3=Leslie Gore / It's My Party
TTITLE4=Fortunes / Seasons In The Sun
TTITLE5=Johnny & The Hurricanes / Red River Rock
TTITLE6=Trini Lopez / If I Had A Hammer
TTITLE7=Ritchie Valens / Donna
TTITLE8=Tremeloes / Here Comes My Baby
TTITLE9=Searchers / Needles And Pins
TTITLE10=Shanana / Surfin' Bird
TTITLE11=Turtles / Happy Together
TTITLE12=Shangri-Las / Remember (When Walking In The Sand)
TTITLE13=Pat Boone / Love Letters In The Sand
TTITLE14=Drifters / Spanish Harlem
TTITLE15=John Fred & The Playboys / Judy In Disguise
EXTD= YEAR: 1992
EXTT0=
EXTT1=
EXTT2=
EXTT3=
EXTT4=
EXTT5=
EXTT6=
EXTT7=
EXTT8=
EXTT9=
EXTT10=
EXTT11=
EXTT12=
EXTT13=
EXTT14=
EXTT15=
PLAYORDER=