Last change 2020.03.01 14:20:52 / Time 2021.10.22 08:42:45

Music Database

My complete CD collection digitalized using differnent Linux tools in connection with remote CDDB databases.
These web pages give overview of content according to CDDB info.

cddb/d2111c10.txt

# xmcd CD database file generated by Grip 3.3.1
# 
# Track frame offsets:
#       150
#       24252
#       48762
#       63792
#       83652
#       99792
#       116952
#       133812
#       162162
#       183102
#       206502
#       225942
#       246852
#       268182
#       279582
#       298692
# 
# Disc length: 4382 seconds
# 
# Revision: 1
# Processed by: cddbd v1.5.2PL0 Copyright (c) Steve Scherf et al.
# Submitted via: Grip 3.3.1
# 
DISCID=d2111c10
DTITLE=Various / World Disco Hits Vol 2
DYEAR=
DGENRE=Other
TTITLE0=More Than I Can Say
TTITLE1=Please Forgive Me
TTITLE2=Twilight Zone
TTITLE3=I Hate Myself For Loving You
TTITLE4=Lambada
TTITLE5=Model
TTITLE6=Wild Boy
TTITLE7=Let's All Chant
TTITLE8=Conga
TTITLE9=Thai Na Na
TTITLE10=Senor Ali Baba
TTITLE11=Me So Horney
TTITLE12=U Can't Touch This
TTITLE13=La Bamba
TTITLE14=Flashdance
TTITLE15=Sportlight
EXTD=
EXTT0=
EXTT1=
EXTT2=
EXTT3=
EXTT4=
EXTT5=
EXTT6=
EXTT7=
EXTT8=
EXTT9=
EXTT10=
EXTT11=
EXTT12=
EXTT13=
EXTT14=
EXTT15=
PLAYORDER=
.