Last change 2020.03.01 14:20:52 / Time 2021.10.22 09:04:19

Music Database

My complete CD collection digitalized using differnent Linux tools in connection with remote CDDB databases.
These web pages give overview of content according to CDDB info.

cddb/d20d1f10.txt

# xmcd CD database file generated by Grip 3.3.1
# 
# Track frame offsets:
#       182
#       16542
#       27025
#       38390
#       56497
#       68575
#       84835
#       102517
#       124520
#       141062
#       156515
#       175630
#       187137
#       205340
#       220357
#       232375
# 
# Disc length: 3361 seconds
# 
# Revision: 1
# Submitted via: Grip 3.3.1
# 
DISCID=d20d1f10
DTITLE=Peter Belli / Ulven Peter CD2
DYEAR=1993
DGENRE=misc
DID3=115
TTITLE0=Kære gamle tog
TTITLE1=Peter Belli og søn
TTITLE2=Hun
TTITLE3=Istedgade
TTITLE4=Vogn 67
TTITLE5=September morgen
TTITLE6=Ingen regning
TTITLE7=Kejserens soldater
TTITLE8=Holbæk
TTITLE9=En at bli' som
TTITLE10=For enden af regnbuen
TTITLE11=To til en vals
TTITLE12=København (Fra en DC-9)
TTITLE13=Den første nat
TTITLE14=Det bli'r aldrig somi gamle dage
TTITLE15=Rock'n' Roll, jeg gav dig mine allerbedste år
EXTD=Recordnumber Mick Music KICKCD 017\n
EXTT0=
EXTT1=
EXTT2=
EXTT3=
EXTT4=
EXTT5=
EXTT6=
EXTT7=
EXTT8=
EXTT9=
EXTT10=
EXTT11=
EXTT12=
EXTT13=
EXTT14=
EXTT15=
PLAYORDER=