Last change 2020.03.01 14:20:52 / Time 2021.12.01 15:49:28

Music Database

My complete CD collection digitalized using differnent Linux tools in connection with remote CDDB databases.
These web pages give overview of content according to CDDB info.

cddb/d10f5c0e.txt

# xmcd CD database file generated by Grip 3.3.1
# 
# Track frame offsets:
#       150
#       20480
#       43612
#       68112
#       91320
#       115682
#       148525
#       164225
#       182657
#       207627
#       230250
#       241802
#       260745
#       276647
# 
# Disc length: 3934 seconds
# 
# Revision: 10
# Submitted via: Grip 3.3.1
# 
DISCID=d10f5c0e
DTITLE=R.E.M. / New Adventures in Hi-Fi
DYEAR=1996
DGENRE=rock
DID3=17
TTITLE0=How The West Was Won And Where It Got Us
TTITLE1=The Wake-Up Bomb
TTITLE2=New Test Leper
TTITLE3=Undertow
TTITLE4=E-Bow The Letter
TTITLE5=Leave
TTITLE6=Departure
TTITLE7=Bittersweet Me
TTITLE8=Be Mine
TTITLE9=Binky The Doormat
TTITLE10=Zither
TTITLE11=So Fast, So Numb
TTITLE12=Low Desert
TTITLE13=Electrolite
EXTD=
EXTT0=
EXTT1=
EXTT2=
EXTT3=
EXTT4=
EXTT5=
EXTT6=
EXTT7=
EXTT8=
EXTT9=
EXTT10=
EXTT11=
EXTT12=
EXTT13=
PLAYORDER=