Last change 2020.03.01 14:20:52 / Time 2020.09.24 07:22:17

Music Database

My complete CD collection digitalized using differnent Linux tools in connection with remote CDDB databases.
These web pages give overview of content according to CDDB info.

cddb/d00db311.txt

# xmcd
# 
# Track frame offsets:
#     150
#     19047
#     32932
#     52945
#     68340
#     85579
#     97760
#     110284
#     122158
#     141763
#     158720
#     170950
#     183919
#     196003
#     216114
#     230335
#     247896
# 
# Disc length: 3509
# 
# Revision: 2
# Processed by: cddbd v1.5.2PL0 Copyright (c) Steve Scherf et al.
# Submitted via: BonkEnc v1.0.6
# 
DISCID=d00db311
DTITLE=Various Artists / Greatest Ever Driving Songs 1
DYEAR=2007
DGENRE=Pop
TTITLE0=Lauper, Cyndi / I Drove All Night
TTITLE1=Bangles / Manic Monday
TTITLE2=Toto / Africa
TTITLE3=Stealer's Wheel / Stuck In The Middle With You
TTITLE4=McCall, C.W. / Convoy
TTITLE5=Berry, Chuck / No Particular Place To Go
TTITLE6=Brown, James / I Got You (I Feel Good)
TTITLE7=Reeves, Martha & The Vandellas / Dancing In The Street
TTITLE8=Richie, Lionel / Dancing On The Ceiling
TTITLE9=Lighthouse Family / Ocean Drive
TTITLE10=La's / There She Goes
TTITLE11=Small Faces  / Itchycoo Park
TTITLE12=Mamas & The Papas / California Dreamin'
TTITLE13=10cc / Dreadlock Holiday
TTITLE14=Squeeze / Up The Junction
TTITLE15=Crash Test Dummies / Mmm Mmm Mmm Mmm
TTITLE16=Brooks, Elkie / Sunshine After The Rain
EXTD=
EXTT0=
EXTT1=
EXTT2=
EXTT3=
EXTT4=
EXTT5=
EXTT6=
EXTT7=
EXTT8=
EXTT9=
EXTT10=
EXTT11=
EXTT12=
EXTT13=
EXTT14=
EXTT15=
EXTT16=
PLAYORDER=
.