Last change 2020.03.01 14:20:52 / Time 2021.10.22 10:10:44

Music Database

My complete CD collection digitalized using differnent Linux tools in connection with remote CDDB databases.
These web pages give overview of content according to CDDB info.

cddb/d00bda0d.txt

# xmcd CD database file generated by Grip 3.3.1
# 
# Track frame offsets:
#       150
#       21550
#       38600
#       55525
#       74450
#       93637
#       112337
#       126337
#       142250
#       160912
#       179825
#       197037
#       212762
# 
# Disc length: 3036 seconds
# 
# Revision: 4
# Submitted via: Grip 3.3.1
# 
DISCID=d00bda0d
DTITLE=Koto / Plays Science-Fiction Movie Themes
DYEAR=1993
DGENRE=misc
DID3=52
TTITLE0=Star Trek
TTITLE1=MacGyver
TTITLE2=Airwolf
TTITLE3=The End
TTITLE4=Twilight Zone
TTITLE5=Back to the Future
TTITLE6=The Thing
TTITLE7=Terminator
TTITLE8=Die Klapperschlange
TTITLE9=The Eve of the War
TTITLE10=Star Wars
TTITLE11=Space Patrol Orion
TTITLE12=Apocalypse Now
EXTD=Licence: ZYX Music 1993 SM 0039 CD\nDistribution in Poland: Snake
EXTD='s Music\nBIEM/ZAIKS
EXTT0=
EXTT1=
EXTT2=
EXTT3=
EXTT4=
EXTT5=
EXTT6=
EXTT7=
EXTT8=
EXTT9=
EXTT10=
EXTT11=
EXTT12=
PLAYORDER=