Last change 2020.03.01 14:20:52 / Time 2020.09.25 03:57:35

Music Database

My complete CD collection digitalized using differnent Linux tools in connection with remote CDDB databases.
These web pages give overview of content according to CDDB info.

cddb/cf10d810.txt

# xmcd CD database file generated by Grip 3.3.1
# 
# Track frame offsets:
#       150
#       16745
#       31885
#       48405
#       66617
#       80762
#       99042
#       113067
#       130162
#       150115
#       174387
#       193045
#       224987
#       249007
#       265630
#       295595
# 
# Disc length: 4314 seconds
# 
# Revision: 2
# Submitted via: Grip 3.3.1
# 
DISCID=cf10d810
DTITLE=Vengaboys / The Party Album
DYEAR=1998
DGENRE=misc
DID3=54
TTITLE0=We Like To Party!
TTITLE1=Boom, Boom, Boom, Boom!!
TTITLE2=Ho Ho Vengaboys!
TTITLE3=Up & Down
TTITLE4=We're Going To Ibiza
TTITLE5=Parada de Tettas
TTITLE6=To Brazil! (Medium Radio)
TTITLE7=Movin' Around
TTITLE8=Overwhelm Yourself
TTITLE9=You And Me
TTITLE10=The Vengabeat
TTITLE11=Paradise...
TTITLE12=Superfly Slick Dick
TTITLE13=All Night Passion
TTITLE14=24 Hours
TTITLE15=To The Rhythm
EXTD= YEAR: 1998
EXTT0=
EXTT1=
EXTT2=
EXTT3=
EXTT4=
EXTT5=
EXTT6=
EXTT7=
EXTT8=
EXTT9=
EXTT10=
EXTT11=
EXTT12=
EXTT13=
EXTT14=
EXTT15=
PLAYORDER=