Last change 2020.03.01 14:20:52 / Time 2021.10.22 09:52:06

Music Database

My complete CD collection digitalized using differnent Linux tools in connection with remote CDDB databases.
These web pages give overview of content according to CDDB info.

cddb/cf107e0e.txt

# xmcd CD database file generated by Grip 3.3.1
# 
# Track frame offsets:
#       150
#       20485
#       44947
#       67530
#       89595
#       110320
#       134072
#       155305
#       171905
#       192032
#       215630
#       242885
#       267317
#       290272
# 
# Disc length: 4224 seconds
# 
# Revision: 35
# Submitted via: Grip 3.3.1
# 
DISCID=cf107e0e
DTITLE=Mark Knopfler / Golden Heart
DYEAR=1996
DGENRE=rock
DID3=17
TTITLE0=Darling Pretty
TTITLE1=Imelda
TTITLE2=Golden Heart
TTITLE3=No Can Do
TTITLE4=Vic and Ray
TTITLE5=Don't You Get It
TTITLE6=A Night in Summer Long Ago
TTITLE7=Cannibals
TTITLE8=I'm the Fool
TTITLE9=Je Suis Desole
TTITLE10=Rudiger
TTITLE11=Nobody's Got the Gun
TTITLE12=Done with Bonaparte
TTITLE13=Are We in Trouble Now
EXTD=LABEL = Warner Bros. Records Inc.\nID = 946026-2\nUPC = 09362-460
EXTD=26-20\nCOPYRIGHT = 1996 YEAR: 1996
EXTT0=
EXTT1=
EXTT2=
EXTT3=
EXTT4=
EXTT5=
EXTT6=
EXTT7=
EXTT8=
EXTT9=
EXTT10=
EXTT11=
EXTT12=
EXTT13=
PLAYORDER=