Last change 2020.03.01 14:20:52 / Time 2020.09.24 07:09:55

Music Database

My complete CD collection digitalized using differnent Linux tools in connection with remote CDDB databases.
These web pages give overview of content according to CDDB info.

cddb/cf0eda10.txt

# xmcd CD database file generated by Grip 3.3.1
# 
# Track frame offsets:
#       183
#       19608
#       36530
#       52733
#       72765
#       91933
#       113190
#       130743
#       143548
#       166620
#       185953
#       199993
#       217723
#       234113
#       255068
#       276335
# 
# Disc length: 3804 seconds
# 
# Revision: 31
# Submitted via: Grip 3.3.1
# 
DISCID=cf0eda10
DTITLE=Mike Oldfield / The Best Of Mike Oldfield - Elements
DYEAR=1993
DGENRE=misc
DID3=10
TTITLE0=Tubular Bells (opening theme)
TTITLE1=Family Man
TTITLE2=Moonlight Shadow
TTITLE3=Heaven's Open
TTITLE4=Five Miles Out
TTITLE5=To France
TTITLE6=Foreign Affair
TTITLE7=In Dulci Jubilo
TTITLE8=Shadow On The Wall
TTITLE9=Islands
TTITLE10=Etude
TTITLE11=Sentinel
TTITLE12=Ommadawn (excerpt)
TTITLE13=Incantations (part four - excerpt)
TTITLE14=Amarok (excerpt)
TTITLE15=Portsmouth
EXTD= YEAR: 1993
EXTT0=
EXTT1=
EXTT2=
EXTT3=
EXTT4=
EXTT5=
EXTT6=
EXTT7=
EXTT8=
EXTT9=
EXTT10=
EXTT11=
EXTT12=
EXTT13=
EXTT14=
EXTT15=
PLAYORDER=