Last change 2020.03.01 14:20:52 / Time 2021.10.18 11:19:52

Music Database

My complete CD collection digitalized using differnent Linux tools in connection with remote CDDB databases.
These web pages give overview of content according to CDDB info.

cddb/ce0ea110.txt

# xmcd CD database file generated by Grip 3.3.1
# 
# Track frame offsets:
#       150
#       20350
#       36085
#       57805
#       73782
#       88185
#       104902
#       128235
#       146687
#       163692
#       181022
#       198077
#       210845
#       225850
#       243875
#       264085
# 
# Disc length: 3747 seconds
# 
# Revision: 1
# Processed by: cddbd v1.5.2PL0 Copyright (c) Steve Scherf et al.
# Submitted via: Grip 3.3.1
# 
DISCID=ce0ea110
DTITLE=Various / Football Dance '98
DYEAR=1998
DGENRE=Other
TTITLE0=La Copa De La Vida
TTITLE1=Coal Ole Ole
TTITLE2=To be Number One
TTITLE3=Do You Mind If I Play
TTITLE4=Super Boy
TTITLE5=Ole Ole Ole 98
TTITLE6=Hand In Hand
TTITLE7=One Moment In Time
TTITLE8=Up & Down
TTITLE9=Stand Up
TTITLE10=Get Up Go Insane
TTITLE11=Samba De Janeiro
TTITLE12=Da Samba
TTITLE13=Maria
TTITLE14=The Fight
TTITLE15=We Are The Champion
EXTD=
EXTT0=
EXTT1=
EXTT2=
EXTT3=
EXTT4=
EXTT5=
EXTT6=
EXTT7=
EXTT8=
EXTT9=
EXTT10=
EXTT11=
EXTT12=
EXTT13=
EXTT14=
EXTT15=
PLAYORDER=
.