Last change 2020.03.01 14:20:52 / Time 2020.09.25 04:39:09

Music Database

My complete CD collection digitalized using differnent Linux tools in connection with remote CDDB databases.
These web pages give overview of content according to CDDB info.

cddb/cd0f7e10.txt

# xmcd CD database file generated by Grip 3.0.7
# 
# Track frame offsets:
#       182
#       12857
#       28642
#       39742
#       58415
#       106297
#       135500
#       155310
#       168290
#       185417
#       196277
#       210992
#       228597
#       248317
#       262757
#       271462
# 
# Disc length: 3968 seconds
# 
# Revision: 3
# Submitted via: Grip 3.0.7
# 
DISCID=cd0f7e10
DTITLE=Various Artists / The Blues Collection CD2
DYEAR=1995
DGENRE=blues
DID3=0
TTITLE0=John Mayall feat. Eric Clapton - On Top of The World
TTITLE1=Isaac Scott - Don't Let My Baby Ride
TTITLE2=John Lee Hooker - Good Rockin' Mama
TTITLE3=Fleetwood Mac - Red Hot Mama
TTITLE4=Jimi Hendrix - Red House
TTITLE5=Buddy Guy & Junior Wells - How Can One Woman Be So Mean
TTITLE6=Buster Benton - Leave Me Alone
TTITLE7=Muddy Waters - Hoochie Coochie Man
TTITLE8=Savoy Brown - Cold Blooded Woman
TTITLE9=John Lee Hooker - No Shoes
TTITLE10=Big Walter Shakey Horton - Easy
TTITLE11=Muddy Waters - Walking Blues
TTITLE12=Fenton Robinson - Somebody Loan Me a Dime
TTITLE13=Billy Boy Arnold with Tony McPhee - I Wish You Would
TTITLE14=Earl Hooker - The Foxtrot
TTITLE15=Todd Sharpeville - Can't Hold Out
EXTD=
EXTT0=
EXTT1=
EXTT2=
EXTT3=
EXTT4=
EXTT5=
EXTT6=
EXTT7=
EXTT8=
EXTT9=
EXTT10=
EXTT11=
EXTT12=
EXTT13=
EXTT14=
EXTT15=
PLAYORDER=