Last change 2020.03.01 14:20:52 / Time 2020.09.24 09:10:47

Music Database

My complete CD collection digitalized using differnent Linux tools in connection with remote CDDB databases.
These web pages give overview of content according to CDDB info.

cddb/cd0cf810.txt

# xmcd CD database file generated by Grip 3.3.1
# 
# Track frame offsets:
#       150
#       15622
#       31625
#       45195
#       60022
#       70795
#       100792
#       114602
#       124645
#       140702
#       156990
#       170265
#       185630
#       201607
#       213912
#       227375
# 
# Disc length: 3322 seconds
# 
# Revision: 0
# Submitted via: Grip 3.3.1
# 
DISCID=cd0cf810
DTITLE=Various / Big Country Super Hits
DYEAR=
DGENRE=misc
DID3=2
TTITLE0=Achy Breaky Heart
TTITLE1=Have You Ever Seen The Rain
TTITLE2=Take Me Home Country Road
TTITLE3=Handy Man
TTITLE4=All I Have To Do Is Dream
TTITLE5=Sutter's Mill
TTITLE6=Let Me Be There
TTITLE7=Honky Tonk Man
TTITLE8=Sundown
TTITLE9=Love Me Love My Dog
TTITLE10=Rhinestone Cowboy
TTITLE11=Stoney
TTITLE12=Take It Easy
TTITLE13=Your Cheatin' Heart
TTITLE14=Greenfields
TTITLE15=Sunshine On My Shoulders
EXTD=
EXTT0=
EXTT1=
EXTT2=
EXTT3=
EXTT4=
EXTT5=
EXTT6=
EXTT7=
EXTT8=
EXTT9=
EXTT10=
EXTT11=
EXTT12=
EXTT13=
EXTT14=
EXTT15=
PLAYORDER=