Last change 2020.03.01 14:20:52 / Time 2020.09.25 02:48:03

Music Database

My complete CD collection digitalized using differnent Linux tools in connection with remote CDDB databases.
These web pages give overview of content according to CDDB info.

cddb/cc0d5b10.txt

# xmcd CD database file generated by Grip 3.3.1
# 
# Track frame offsets:
#       183
#       20560
#       33168
#       45900
#       62845
#       75618
#       101233
#       115558
#       129480
#       142718
#       156193
#       168308
#       189600
#       209428
#       227095
#       239400
# 
# Disc length: 3421 seconds
# 
# Revision: 8
# Submitted via: Grip 3.3.1
# 
DISCID=cc0d5b10
DTITLE=Tommy Seebach / 32 hits CD2
DYEAR=1991
DGENRE=rock
DID3=13
TTITLE0=Copenhagen
TTITLE1=Morgen
TTITLE2=Disco Tangp
TTITLE3=Roses
TTITLE4=Snorkel og gummitæer
TTITLE5=Bobble Ses
TTITLE6=Tak for i nat skat
TTITLE7=Smiling Turntable
TTITLE8=En lille stribe solskin
TTITLE9=Flying High Love
TTITLE10=Pige fra top til tå
TTITLE11=Apache
TTITLE12=Endnu
TTITLE13=I'm In Love
TTITLE14=Hip hurra - det' min fødselsdag
TTITLE15=Andeby
EXTD=
EXTT0=
EXTT1=
EXTT2=
EXTT3=
EXTT4=
EXTT5=
EXTT6=
EXTT7=
EXTT8=
EXTT9=
EXTT10=
EXTT11=
EXTT12=
EXTT13=
EXTT14=
EXTT15=
PLAYORDER=