Last change 2020.03.01 14:20:52 / Time 2021.12.01 14:58:26

Music Database

My complete CD collection digitalized using differnent Linux tools in connection with remote CDDB databases.
These web pages give overview of content according to CDDB info.

cddb/cb0dd010.txt

# xmcd CD database file generated by Grip 3.0.7
# 
# Track frame offsets:
#       182
#       15780
#       31000
#       47362
#       61875
#       76565
#       93980
#       110912
#       129870
#       147705
#       163632
#       179755
#       195972
#       212840
#       231335
#       248955
# 
# Disc length: 3538 seconds
# 
# Revision: 8
# Submitted via: Grip 3.0.7
# 
DISCID=cb0dd010
DTITLE=Kim Wilde / The Very Best Of Kim Wilde
DYEAR=1987
DGENRE=rock
DID3=13
TTITLE0=Kids In America
TTITLE1=Chequered Love
TTITLE2=Water On Glass
TTITLE3=26580
TTITLE4=Boys
TTITLE5=Our Town
TTITLE6=Everything We Know
TTITLE7=You'll Never Be So Wrong
TTITLE8=Cambodia
TTITLE9=View From A Bridge
TTITLE10=Love Blonde
TTITLE11=House Of Salome
TTITLE12=Dancing In The Dark
TTITLE13=Child Come Away
TTITLE14=Take Me Tonight
TTITLE15=Stay Awhile
EXTD=YEAR: 1987 ID3G: 17
EXTT0=
EXTT1=
EXTT2=
EXTT3=
EXTT4=
EXTT5=
EXTT6=
EXTT7=
EXTT8=
EXTT9=
EXTT10=
EXTT11=
EXTT12=
EXTT13=
EXTT14=
EXTT15=
PLAYORDER=