Last change 2020.03.01 14:20:52 / Time 2020.09.24 08:13:36

Music Database

My complete CD collection digitalized using differnent Linux tools in connection with remote CDDB databases.
These web pages give overview of content according to CDDB info.

cddb/cb0c720f.txt

# xmcd CD database file generated by Grip 3.3.1
# 
# Track frame offsets:
#       150
#       20823
#       38954
#       53457
#       73441
#       90137
#       101989
#       115953
#       130112
#       144199
#       160837
#       173527
#       193666
#       209554
#       227477
# 
# Disc length: 3188 seconds
# 
# Revision: 2
# Submitted via: Grip 3.3.1
# 
DISCID=cb0c720f
DTITLE=Puhdys / Wilder Frieden
DYEAR=1999
DGENRE=rock
DID3=17
TTITLE0=Wilder Frieden
TTITLE1=Ich bin der liebe Gott
TTITLE2=Dieser Tag gehört Dir
TTITLE3=Wut will nicht sterben
TTITLE4=Normales Glück
TTITLE5=Du hast Schuld
TTITLE6=Nie getraut
TTITLE7=Eine Frage der Ansicht
TTITLE8=Hipp Hipp Hurra
TTITLE9=Gigolo
TTITLE10=Höhenflug
TTITLE11=Wie ein Strom
TTITLE12=Schiseß mich ab
TTITLE13=Auf in's neue Jahrtausend
TTITLE14=Leise weht der Wind (Weihnachtslied)
EXTD=YEAR: 1999  ID3G:  17
EXTT0=
EXTT1=
EXTT2=
EXTT3=
EXTT4=
EXTT5=
EXTT6=
EXTT7=
EXTT8=
EXTT9=
EXTT10=
EXTT11=
EXTT12=
EXTT13=
EXTT14=
PLAYORDER=