Last change 2020.03.01 14:20:52 / Time 2020.09.19 14:29:49

Music Database

My complete CD collection digitalized using differnent Linux tools in connection with remote CDDB databases.
These web pages give overview of content according to CDDB info.

cddb/c911ab0e.txt

# xmcd CD database file generated by Grip 3.3.1
# 
# Track frame offsets:
#       150
#       24847
#       50007
#       79850
#       95410
#       141865
#       158335
#       189367
#       208630
#       224670
#       247302
#       283890
#       303797
#       320672
# 
# Disc length: 4525 seconds
# 
# Revision: 4
# Submitted via: Grip 3.3.1
# 
DISCID=c911ab0e
DTITLE=Various / Dance Classics: Gold Christmas Edition
DYEAR=1994
DGENRE=misc
DID3=12
TTITLE0=Mel & Kim / Rockin' Around The Christmas Tree (12" Version)
TTITLE1=Bing Crosby / White Christmas (Special Dance Mix)
TTITLE2=Wham / Last Christmas (Pudding Mix)
TTITLE3=Slade / Merry X-Mas Everybody (Original Version)
TTITLE4=Salsoul Orchestra / Christmas Time (Medley)
TTITLE5=Shakin' Stevens / Merry Christmas Everyone (Original Version)
TTITLE6=The Jingle Belles / Christmas Spectre (Medley)
TTITLE7=Queen / Thank God It's Christmas (12" Version)
TTITLE8=John Lennon / Happy X-Mas (War is over) (Original Version)
TTITLE9=Alexander O'Neal / The Little Drummer Boy (Original Version)
TTITLE10=Kurtis Blow / Christmas Rappin' (12" Version)
TTITLE11=Santa Klaus / Megamix (12" Version)
TTITLE12=Band Aid / Do They Know It's Christmas (Original Version)
TTITLE13=Rotterdam Termination Source / Merry X-Mess (12" Version)
EXTD=
EXTT0=
EXTT1=
EXTT2=
EXTT3=
EXTT4=
EXTT5=
EXTT6=
EXTT7=
EXTT8=
EXTT9=
EXTT10=
EXTT11=
EXTT12=
EXTT13=
PLAYORDER=