Last change 2020.03.01 14:20:52 / Time 2021.10.22 10:06:03

Music Database

My complete CD collection digitalized using differnent Linux tools in connection with remote CDDB databases.
These web pages give overview of content according to CDDB info.

cddb/c8116d0e.txt

# xmcd CD database file generated by Grip 3.2.0
# 
# Track frame offsets:
#       150
#       22307
#       47710
#       90319
#       107506
#       131012
#       151213
#       168535
#       177779
#       234545
#       251664
#       269793
#       294621
#       311238
# 
# Disc length: 4463 seconds
# 
# Revision: 3
# Submitted via: Grip 3.2.0
# 
DISCID=c8116d0e
DTITLE=Gasolin / Black Box - Gasolin 6 - Live Sådan
DYEAR=1976
DGENRE=rock
DID3=17
TTITLE0=Good Time Charlie
TTITLE1=Kap Farvel Til Ümanarssuaq
TTITLE2=Legenden Om Josha Og Ming
TTITLE3=Masser Af Succes
TTITLE4=Kvinde Min
TTITLE5=Splittergal
TTITLE6=Sjagge
TTITLE7=Sort, Sort, Sort
TTITLE8=Alla-Tin-Gala
TTITLE9=The Last Jim
TTITLE10=Medley
TTITLE11=Rabalderstræde
TTITLE12=Keep On Knockin'
TTITLE13=Refrainet Er Frit
EXTD=
EXTT0=
EXTT1=
EXTT2=
EXTT3=
EXTT4=
EXTT5=
EXTT6=
EXTT7=
EXTT8=
EXTT9=
EXTT10=
EXTT11=
EXTT12=
EXTT13=
PLAYORDER=