Last change 2020.03.01 14:20:52 / Time 2021.10.22 10:10:03

Music Database

My complete CD collection digitalized using differnent Linux tools in connection with remote CDDB databases.
These web pages give overview of content according to CDDB info.

cddb/c80f0e0e.txt

# xmcd CD database file generated by Grip 3.0.7
# 
# Track frame offsets:
#       150
#       28040
#       57480
#       78725
#       90505
#       108987
#       126255
#       146517
#       172070
#       194837
#       208960
#       234612
#       247587
#       270080
# 
# Disc length: 3856 seconds
# 
# Revision: 0
# Submitted via: Grip 3.0.7
# 
DISCID=c80f0e0e
DTITLE=Kitaro / The Essential Collection
DYEAR=
DGENRE=newage
DID3=10
TTITLE0=Mandala (Mandala)
TTITLE1=Dance Of Sarasvati (Mandala)
TTITLE2=Main Title (The Soong Sisters)
TTITLE3=Dr Sun & Ching-Ling (The Soong Sisters)
TTITLE4=Silk Road (Silk Road)
TTITLE5=Heavenly Father (Silk Road)
TTITLE6=Silk Road Fantasy (Silk Road)
TTITLE7=Everlasting Road (Silk Road)
TTITLE8=Silver Moon (Silk Road II)
TTITLE9=Takia Makan Desert (Silk Road II)
TTITLE10=Mystic Scand Dance (Silk Road II)
TTITLE11=Shimmering Horizon (Oasis)
TTITLE12=Tunhuang (Tunhuang)
TTITLE13=Free Flight (Tunhuang)
EXTD=
EXTT0=Mandala (from Mandala)
EXTT1=
EXTT2=
EXTT3=
EXTT4=
EXTT5=
EXTT6=
EXTT7=
EXTT8=
EXTT9=
EXTT10=
EXTT11=
EXTT12=
EXTT13=
PLAYORDER=