Last change 2020.03.01 14:20:52 / Time 2021.10.22 10:18:56

Music Database

My complete CD collection digitalized using differnent Linux tools in connection with remote CDDB databases.
These web pages give overview of content according to CDDB info.

cddb/c80e5a10.txt

# xmcd CD database file generated by Grip 3.3.1
# 
# Track frame offsets:
#       182
#       16515
#       34092
#       49575
#       64365
#       79627
#       95037
#       115680
#       139102
#       153012
#       167020
#       181470
#       197727
#       213572
#       229540
#       258080
# 
# Disc length: 3676 seconds
# 
# Revision: 1
# Submitted via: Grip 3.3.1
# 
DISCID=c80e5a10
DTITLE=Various / Dance Explosion 2 - CD3
DYEAR=
DGENRE=misc
DID3=3
TTITLE0=Thelma Houston: Don't Leave Me This Way
TTITLE1=Crusaders: Street Life
TTITLE2=Rick James: Super Freak
TTITLE3=People's Choice: Do It Any Way You Wanna
TTITLE4=Isley Brothers: The Pride
TTITLE5=T-connection: Do What You Wanna Do
TTITLE6=Issac Hayes: Theme From Shaft
TTITLE7=Ralph Carter: Extra Extra
TTITLE8=The Hues Corporation: Rock The Boat
TTITLE9=Quincy Jones: Stuff Like That
TTITLE10=Marvin Gaye: Mercy Mercy Me
TTITLE11=Mc Fadden And Whitehead: Ain't No Stoppin'
TTITLE12=Lou Rawls: You'll Never Find Another Love Like Mine
TTITLE13=Tha Jacksons: Blame It On The Boogie
TTITLE14=Rick Dees And His Cast Of Idiots: Disco Duck
TTITLE15=Donna Summer: Mac Arthur Park
EXTD=
EXTT0=
EXTT1=
EXTT2=
EXTT3=
EXTT4=
EXTT5=
EXTT6=
EXTT7=
EXTT8=
EXTT9=
EXTT10=
EXTT11=
EXTT12=
EXTT13=
EXTT14=
EXTT15=
PLAYORDER=