Last change 2020.03.01 14:20:52 / Time 2020.09.25 03:23:49

Music Database

My complete CD collection digitalized using differnent Linux tools in connection with remote CDDB databases.
These web pages give overview of content according to CDDB info.

cddb/c70f5e0e.txt

# xmcd CD database file generated by Grip 3.3.1
# 
# Track frame offsets:
#       150
#       17412
#       36825
#       59245
#       80295
#       101452
#       127832
#       148542
#       164905
#       187037
#       200760
#       214242
#       233600
#       250860
# 
# Disc length: 3936 seconds
# 
# Revision: 156
# Submitted via: Grip 3.3.1
# 
DISCID=c70f5e0e
DTITLE=U2 / The Best Of 1980-1990
DYEAR=1998
DGENRE=data
DID3=17
TTITLE0=Pride (In The Name Of Love)
TTITLE1=New Year's Day
TTITLE2=With Or Without You
TTITLE3=I Still Haven't Found What I'm Looking For
TTITLE4=Sunday Bloody Sunday
TTITLE5=Bad
TTITLE6=Where The Streets Have No Name
TTITLE7=I Will Follow
TTITLE8=The Unforgettable Fire
TTITLE9=Sweetest Thing (The Single Mix)
TTITLE10=Desire
TTITLE11=When Love Comes To Town
TTITLE12=Angel Of Harlem
TTITLE13=All I Want Is You
EXTD= ID3G:  17 YEAR: 1998
EXTT0=
EXTT1=
EXTT2=
EXTT3=
EXTT4=
EXTT5=
EXTT6=
EXTT7=
EXTT8=
EXTT9=
EXTT10=
EXTT11=
EXTT12=
EXTT13=
PLAYORDER=