Last change 2020.03.01 14:20:52 / Time 2020.09.25 03:49:32

Music Database

My complete CD collection digitalized using differnent Linux tools in connection with remote CDDB databases.
These web pages give overview of content according to CDDB info.

cddb/c70eb90f.txt

# xmcd CD database file generated by Grip 3.3.1
# 
# Track frame offsets:
#       182
#       5452
#       22642
#       40775
#       59230
#       79592
#       97702
#       119382
#       143982
#       165235
#       188222
#       205030
#       222130
#       245992
#       269552
# 
# Disc length: 3771 seconds
# 
# Revision: 2
# Submitted via: Grip 3.3.1
# 
DISCID=c70eb90f
DTITLE=M C SAR & Real McCoy / Space Invaders
DYEAR=1994
DGENRE=misc
DID3=3
TTITLE0=Space Invaders (The Opening)
TTITLE1=Automatic Lover (Call For Love)
TTITLE2=Run Away
TTITLE3=24 Hours
TTITLE4=Love & Devotion
TTITLE5=Another Night
TTITLE6=I Want You
TTITLE7=Operator
TTITLE8=Streetfighter
TTITLE9=Out of Control
TTITLE10=Je Suis Amoureux
TTITLE11=How Deep is Your Love?
TTITLE12=Another Night (U.S. House Mix)
TTITLE13=Megablast
TTITLE14=Space Invaders (The Last Crusade)
EXTD=
EXTT0=
EXTT1=
EXTT2=
EXTT3=
EXTT4=
EXTT5=
EXTT6=
EXTT7=
EXTT8=
EXTT9=
EXTT10=
EXTT11=
EXTT12=
EXTT13=
EXTT14=
PLAYORDER=