Last change 2020.03.01 14:20:52 / Time 2021.10.22 09:05:05

Music Database

My complete CD collection digitalized using differnent Linux tools in connection with remote CDDB databases.
These web pages give overview of content according to CDDB info.

cddb/c610c210.txt

# xmcd
#
# Track frame offsets:
#	150
#	18291
#	33823
#	54709
#	67684
#	81843
#	113376
#	139685
#	159838
#	178634
#	199101
#	228984
#	242772
#	267683
#	285995
#	312778
#
# Disc length: 4292 seconds
#
# Revision: 1
# Processed by: cddbd v1.5.2PL0 Copyright (c) Steve Scherf et al.
# Submitted via: audiograbber 1.83.01
#
DISCID=c610c210
DTITLE=Puhdys / Live aus der o2 world II
DYEAR=2009
DGENRE=
TTITLE0=Wenn ein Mensch lebt
TTITLE1=Lebenszeit
TTITLE2=Wenn Träume sterben
TTITLE3=Alt wie ein Baum
TTITLE4=Ufer der Nacht
TTITLE5=Im Tivoli
TTITLE6=Die Randfichten
TTITLE7=Ich bin der liebe gott
TTITLE8=Hier oben
TTITLE9=Uns zwingt keiner in die Knie
TTITLE10=Bis ans Ende der Welt
TTITLE11=Drums-Dio
TTITLE12=Rockerrente
TTITLE13=Hey, wir wollen die Eisbären sehen
TTITLE14=Das Buch
TTITLE15=xxx
EXTD=
EXTT0=
EXTT1=
EXTT2=
EXTT3=
EXTT4=
EXTT5=
EXTT6=
EXTT7=
EXTT8=
EXTT9=
EXTT10=
EXTT11=
EXTT12=
EXTT13=
EXTT14=
EXTT15=
PLAYORDER=
.