Last change 2020.03.01 14:20:52 / Time 2020.09.19 14:23:26

Music Database

My complete CD collection digitalized using differnent Linux tools in connection with remote CDDB databases.
These web pages give overview of content according to CDDB info.

cddb/c50ef00e.txt

#FILENAME=c50ef00e
# xmcd CD database file
#
# Track frame offsets:
#	150
#	22344
#	45173
#	65347
#	85684
#	104014
#	119438
#	136166
#	152984
#	173658
#	195637
#	215783
#	231013
#	251904
#
# Disc length: 3826 seconds
#
# Revision: 3
# Submitted via: CDex 1.70beta2
#
DISCID=c50ef00e
DTITLE=Carabao / Ruam Hit Carabao Kwai Thong Vol2
DYEAR=2001
DGENRE=Thai Country
TTITLE0=Mon pleng Carabao
TTITLE1=Larng barng
TTITLE2=Pra cha tib pa tai
TTITLE3=Tinner
TTITLE4=Maha'lai
TTITLE5=Racha ngern porn
TTITLE6=Ruk tor-ra-hod
TTITLE7=Kra tang dok mai hai khun
TTITLE8=Nang ngam too kra-jok
TTITLE9=Sunya nah fon
TTITLE10=Khon keb fuen
TTITLE11=Poo thao
TTITLE12=Refugee
TTITLE13=Chewit sumpun
EXTD= YEAR: 2001
EXTT0=
EXTT1=
EXTT2=
EXTT3=
EXTT4=
EXTT5=
EXTT6=
EXTT7=
EXTT8=
EXTT9=
EXTT10=
EXTT11=
EXTT12=
EXTT13=
PLAYORDER=