Last change 2020.03.01 14:20:52 / Time 2021.10.18 10:58:31

Music Database

My complete CD collection digitalized using differnent Linux tools in connection with remote CDDB databases.
These web pages give overview of content according to CDDB info.

cddb/c509b50f.txt

# xmcd CD database file generated by Grip 3.3.1
# 
# Track frame offsets:
#       150
#       13467
#       27400
#       45567
#       60392
#       68235
#       81425
#       87545
#       101392
#       108690
#       128585
#       143035
#       158962
#       165330
#       173042
# 
# Disc length: 2487 seconds
# 
# Revision: 67436570
# Submitted via: Grip 3.3.1
# 
DISCID=c509b50f
DTITLE=Enya / The Celts
DYEAR=1992
DGENRE=folk
DID3=80
TTITLE0=The Celts
TTITLE1=Aldebaran
TTITLE2=I Want Tomorrow
TTITLE3=March of the Celts
TTITLE4=Deireadh an Tuath
TTITLE5=The Sun in the Stream
TTITLE6=To go Beyond (I)
TTITLE7=Fairytale
TTITLE8=Epona
TTITLE9=Triad: St. Patrick, Cú Chulainn, Oisin
TTITLE10=Portrait (Out of the Blue)
TTITLE11=Boadicea
TTITLE12=Bard Dance
TTITLE13=Dan y Dŵr
TTITLE14=To go Beyond (II)
EXTD=
EXTT0=
EXTT1=
EXTT2=
EXTT3=
EXTT4=
EXTT5=
EXTT6=
EXTT7=
EXTT8=
EXTT9=
EXTT10=
EXTT11=
EXTT12=
EXTT13=
EXTT14=
PLAYORDER=