Last change 2020.03.01 14:20:52 / Time 2021.10.18 10:53:42

Music Database

My complete CD collection digitalized using differnent Linux tools in connection with remote CDDB databases.
These web pages give overview of content according to CDDB info.

cddb/c30d740e.txt

# xmcd CD database file generated by Grip 3.0.7
# 
# Track frame offsets:
#       150
#       18080
#       31838
#       45683
#       71848
#       87688
#       107605
#       127065
#       141130
#       162225
#       185133
#       199853
#       225893
#       239695
# 
# Disc length: 3446 seconds
# 
# Revision: 15
# Submitted via: Grip 3.0.7
# 
DISCID=c30d740e
DTITLE=ABBA / The Hits 2
DYEAR=1988
DGENRE=rock
DID3=13
TTITLE0=The Name Of The Game
TTITLE1=Arrival
TTITLE2=Ring Ring
TTITLE3=Eagle
TTITLE4=Summer Night City
TTITLE5=Happy New Year
TTITLE6=Angel Eyes
TTITLE7=Money, Money, Money
TTITLE8=Andante, Andante
TTITLE9=Voulez-Vous
TTITLE10=Kisses Of Fire
TTITLE11=The Day Before You Came
TTITLE12=When I Kissed The Teacher
TTITLE13=Fernando
EXTD=YEAR: 1988
EXTT0=
EXTT1=
EXTT2=
EXTT3=
EXTT4=
EXTT5=
EXTT6=
EXTT7=
EXTT8=
EXTT9=
EXTT10=
EXTT11=
EXTT12=
EXTT13=
PLAYORDER=