Last change 2020.03.01 14:20:52 / Time 2021.10.22 10:12:36

Music Database

My complete CD collection digitalized using differnent Linux tools in connection with remote CDDB databases.
These web pages give overview of content according to CDDB info.

cddb/c30d240e.txt

# xmcd CD database file generated by Grip 3.3.1
# 
# Track frame offsets:
#       150
#       25337
#       43060
#       57794
#       73689
#       89397
#       107335
#       124001
#       140316
#       155058
#       169839
#       192362
#       205838
#       221274
# 
# Disc length: 3366 seconds
# 
# Revision: 1
# Submitted via: Grip 3.3.1
# 
DISCID=c30d240e
DTITLE=Puhdys / zufrieden?
DYEAR=2001
DGENRE=folk
DID3=80
TTITLE0=Totale Immunität
TTITLE1=Himmel voller Geigen
TTITLE2=Damals in Berlin
TTITLE3=Zu wenig Zeit
TTITLE4=Wüstensand
TTITLE5=Es ist schön ein Mensch zu sein
TTITLE6=Was du sagst
TTITLE7=Stars
TTITLE8=Ich hab' ein Gefühl
TTITLE9=Geister
TTITLE10=Aus der Ferne
TTITLE11=Hinterhergeweint
TTITLE12=Unsichtbare (Bonus Track)
TTITLE13=Stars (extended Version)
EXTD=2001 - Columbia No1
EXTT0=
EXTT1=
EXTT2=
EXTT3=
EXTT4=
EXTT5=
EXTT6=
EXTT7=
EXTT8=
EXTT9=
EXTT10=
EXTT11=
EXTT12=
EXTT13=
PLAYORDER=