Last change 2020.03.01 14:20:52 / Time 2021.12.01 16:29:50

Music Database

My complete CD collection digitalized using differnent Linux tools in connection with remote CDDB databases.
These web pages give overview of content according to CDDB info.

cddb/c30b8810.txt

# xmcd CD database file generated by Grip 3.3.1
# 
# Track frame offsets:
#       183
#       10148
#       25143
#       37720
#       54938
#       70495
#       79323
#       92368
#       110383
#       127503
#       139950
#       154643
#       166905
#       179415
#       194268
#       206695
# 
# Disc length: 2954 seconds
# 
# Revision: 8
# Submitted via: Grip 3.3.1
# 
DISCID=c30b8810
DTITLE=Tommy Seebach / 32 hits CD1
DYEAR=1991
DGENRE=misc
DID3=13
TTITLE0=Lucky Guy
TTITLE1=Boogie Woogie Rendez-vous
TTITLE2=Det' det jeg altid har sagt (heldige fyr)
TTITLE3=Du det dejligste
TTITLE4=Who won the war in Africa
TTITLE5=Wheels
TTITLE6=Krøller eller ej
TTITLE7=Hit
TTITLE8=Klø mig lidt på ryggen
TTITLE9=Tommygum Rock 'N' Roll Show
TTITLE10=Vil du, tør du, ka' du eller hva'
TTITLE11=I see the moon
TTITLE12=Det' gratis
TTITLE13=I will return
TTITLE14=Pyjamas for to
TTITLE15=Du skælder mig hele tiden ud
EXTD=
EXTT0=
EXTT1=
EXTT2=
EXTT3=
EXTT4=
EXTT5=
EXTT6=
EXTT7=
EXTT8=
EXTT9=
EXTT10=
EXTT11=
EXTT12=
EXTT13=
EXTT14=
EXTT15=
PLAYORDER=