Last change 2020.03.01 14:20:52 / Time 2021.12.07 03:46:34

Music Database

My complete CD collection digitalized using differnent Linux tools in connection with remote CDDB databases.
These web pages give overview of content according to CDDB info.

cddb/c211f70e.txt

# xmcd CD database file generated by Grip 3.3.1
# 
# Track frame offsets:
#       150
#       29902
#       61282
#       89642
#       120525
#       143677
#       160017
#       192020
#       214187
#       232350
#       251809
#       279832
#       300110
#       331597
# 
# Disc length: 4601 seconds
# 
# Revision: 3
# Submitted via: Grip 3.3.1
# 
DISCID=c211f70e
DTITLE=Stig Møller / I Vennernes Tegn CD2 Live
DYEAR=
DGENRE=rock
DID3=17
TTITLE0=Itsi Bitsi 
TTITLE1=Cowboy Profil
TTITLE2=Dunhammer Aften
TTITLE3=Sidste Tur I Baljerne 
TTITLE4=Drej 0 - 0 - 0  
TTITLE5=Sikken´ Dejlig Dag  
TTITLE6=Palmetræet 
TTITLE7=Historien Om Harry 
TTITLE8=Se Hjulet Drejer Verden Rundt og Rundt
TTITLE9=Til Nashet 
TTITLE10=Ud af Skyggerne Kom De  
TTITLE11=To Sjæle 
TTITLE12=Gør Mig Varm 
TTITLE13=EEC - Blues 
EXTD=
EXTT0=
EXTT1=
EXTT2=
EXTT3=
EXTT4=
EXTT5=
EXTT6=
EXTT7=
EXTT8=
EXTT9=
EXTT10=
EXTT11=
EXTT12=
EXTT13=
PLAYORDER=