Last change 2020.03.01 14:20:52 / Time 2020.09.24 08:04:53

Music Database

My complete CD collection digitalized using differnent Linux tools in connection with remote CDDB databases.
These web pages give overview of content according to CDDB info.

cddb/c112a61f.txt

# xmcd CD database file generated by Grip 3.3.1
# 
# Track frame offsets:
#       150
#       9865
#       19215
#       29395
#       41737
#       53445
#       62455
#       70635
#       82422
#       95267
#       104035
#       115645
#       127780
#       138050
#       148607
#       163452
#       177600
#       186925
#       195580
#       205247
#       218807
#       229855
#       239752
#       249595
#       260245
#       271202
#       285095
#       305692
#       316847
#       330297
#       342227
# 
# Disc length: 4776 seconds
# 
# Revision: 43
# Submitted via: Grip 3.3.1
# 
DISCID=c112a61f
DTITLE=Elvis Presley / 30 #1 HITS
DYEAR=2005
DGENRE=misc
DID3=78
TTITLE0=Heartbreak Hotel
TTITLE1=Don't Be Cruel
TTITLE2=Hound Dog
TTITLE3=Love Me Tender
TTITLE4=Too Much
TTITLE5=All Shook Up
TTITLE6=(Let Me Be Your) Teddy Bear
TTITLE7=Jailhouse Rock
TTITLE8=Don't
TTITLE9=Hard Headed Woman
TTITLE10=One Night
TTITLE11=(Now And Then There's) A Fool Such As I
TTITLE12=A Big Hunk O'Love
TTITLE13=Stuck on You
TTITLE14=It's Now or Never
TTITLE15=Are You Lonesome Tonight
TTITLE16=Wooden Heart
TTITLE17=Surrender
TTITLE18=(Marie's The Name) His Latest Flame
TTITLE19=Can't Help Falling In Love
TTITLE20=Good Luck Charm
TTITLE21=She's Not You
TTITLE22=Return To Sender
TTITLE23=(You're the) Devil in Disguise
TTITLE24=Crying In The Chapel
TTITLE25=In The Ghetto
TTITLE26=Suspicious Minds
TTITLE27=The Wonder Of You
TTITLE28=Burning Love
TTITLE29=Way Down
TTITLE30=A Little Less Conversation (JXL Radio Edit Remix)
EXTD=
EXTT0=
EXTT1=
EXTT2=
EXTT3=
EXTT4=
EXTT5=
EXTT6=
EXTT7=
EXTT8=
EXTT9=
EXTT10=
EXTT11=
EXTT12=
EXTT13=
EXTT14=
EXTT15=
EXTT16=
EXTT17=
EXTT18=
EXTT19=
EXTT20=
EXTT21=
EXTT22=
EXTT23=
EXTT24=
EXTT25=
EXTT26=
EXTT27=
EXTT28=
EXTT29=
EXTT30=
PLAYORDER=