Last change 2020.03.01 14:20:52 / Time 2020.09.24 08:46:39

Music Database

My complete CD collection digitalized using differnent Linux tools in connection with remote CDDB databases.
These web pages give overview of content according to CDDB info.

cddb/c0115e0e.txt

# xmcd
#
# Track frame offsets:
#	150
#	1788
#	26072
#	47428
#	82426
#	104286
#	126498
#	143387
#	159563
#	173877
#	198264
#	217991
#	283970
#	311518
#
# Disc length: 4448 seconds
#
# Revision: 1
# Processed by: cddbd v1.5.2PL0 Copyright (c) Steve Scherf et al.
# Submitted via: audiograbber 1.83.01
#
DISCID=c0115e0e
DTITLE=Puhdys / Live aus der o2 world
DYEAR=2009
DGENRE=
TTITLE0=Happy Birthday, Puhdys
TTITLE1=Lust auf Abenteuer
TTITLE2=K├╝hle Lady
TTITLE3=Neue Helden
TTITLE4=Segelboot
TTITLE5=Das zweite Leben
TTITLE6=Ohrwurm
TTITLE7=Abenteuer
TTITLE8=An Fenster/City
TTITLE9=Ich will nicht vergessen
TTITLE10=Wilder Frieden
TTITLE11=Medley
TTITLE12=Perlenfischer
TTITLE13=Hiroshima
EXTD=
EXTT0=
EXTT1=
EXTT2=
EXTT3=
EXTT4=
EXTT5=
EXTT6=
EXTT7=
EXTT8=
EXTT9=
EXTT10=
EXTT11=
EXTT12=
EXTT13=
PLAYORDER=
.