Last change 2020.03.01 14:20:52 / Time 2021.10.18 11:08:25

Music Database

My complete CD collection digitalized using differnent Linux tools in connection with remote CDDB databases.
These web pages give overview of content according to CDDB info.

cddb/bf0aa70f.txt

# xmcd CD database file generated by Grip 3.3.1
# 
# Track frame offsets:
#       150
#       17527
#       30575
#       43090
#       56337
#       70330
#       82840
#       95507
#       109737
#       122977
#       136432
#       150157
#       163667
#       176992
#       192832
# 
# Disc length: 2729 seconds
# 
# Revision: 12
# Submitted via: Grip 3.3.1
# 
DISCID=bf0aa70f
DTITLE=Dr. Hook / Dr. Hook Greatest Hits (And More)
DYEAR=1987
DGENRE=rock
DID3=11
TTITLE0=Sylvia's Mother
TTITLE1=The Cover Of The Rolling Stone
TTITLE2=Only 16
TTITLE3=A Little Bit More
TTITLE4=Walk Right In
TTITLE5=Making Love And Music
TTITLE6=I Couldn't Believe
TTITLE7=A Couple More Years
TTITLE8=Sharing The Night Together
TTITLE9=When You're In Love With A Beautiful Woman
TTITLE10=Better Love Next Time
TTITLE11=Sexy Eyes
TTITLE12=Years From Now
TTITLE13=The Radio
TTITLE14=Sweetest Of All
EXTD=24\nCOPYRIGHT = 1987 YEAR: 1987
EXTT0=
EXTT1=
EXTT2=
EXTT3=
EXTT4=
EXTT5=
EXTT6=
EXTT7=
EXTT8=
EXTT9=
EXTT10=
EXTT11=
EXTT12=
EXTT13=
EXTT14=
PLAYORDER=