Last change 2020.03.01 14:20:52 / Time 2020.09.24 09:09:55

Music Database

My complete CD collection digitalized using differnent Linux tools in connection with remote CDDB databases.
These web pages give overview of content according to CDDB info.

cddb/be0e2b0f.txt

# xmcd CD database file generated by Grip 3.3.1
# 
# Track frame offsets:
#       150
#       9782
#       28962
#       50677
#       63332
#       83540
#       105517
#       113432
#       133507
#       143947
#       163092
#       178990
#       191275
#       218590
#       240395
# 
# Disc length: 3629 seconds
# 
# Revision: 8
# Submitted via: Grip 3.3.1
# 
DISCID=be0e2b0f
DTITLE=Enigma / MCMXC a.D.
DYEAR=1991
DGENRE=misc
DID3=45
TTITLE0=The Voice Of Enigma
TTITLE1=Principles Of Lust : A - Sadeness
TTITLE2=Principles Of Lust : B - Find Love
TTITLE3=Principles Of Lust : C - Sadeness (Reprise)
TTITLE4=Callas Went Away
TTITLE5=Mea Culpa
TTITLE6=The Voice & The Snake
TTITLE7=Knocking On Forbidden Doors
TTITLE8=Back To The Rivers Of Belief: A - Way To Eternity
TTITLE9=Back To The Rivers Of Belief: B - Hallelujah
TTITLE10=Back To The Rivers Of Belief: C - The Rivers Of Belief
TTITLE11=Sadeness (Meditation)
TTITLE12=Mea Culpa (Fading Shades)
TTITLE13=Principles Of Lust (Everlasting Lust)
TTITLE14=The Rivers Of Belief (The Returning Silence)
EXTD= YEAR: 1991
EXTT0=I
EXTT1=II  - A - Sadeness
EXTT2=II  - B - Find Love
EXTT3=II  - C - Sadeness (Reprise)
EXTT4=III
EXTT5=IV
EXTT6=V
EXTT7=VI
EXTT8=VII  - A -  Way To Eternity
EXTT9=VII  - B -  Hallelujah
EXTT10=VII  - C -  The Rivers Of Belief
EXTT11=VIII
EXTT12=IX
EXTT13=X
EXTT14=XI
PLAYORDER=