Last change 2020.03.01 14:20:52 / Time 2020.09.24 07:13:14

Music Database

My complete CD collection digitalized using differnent Linux tools in connection with remote CDDB databases.
These web pages give overview of content according to CDDB info.

cddb/be0d4610.txt

# xmcd CD database file generated by Grip 3.3.1
# 
# Track frame offsets:
#       150
#       18843
#       32358
#       47278
#       59658
#       76550
#       92033
#       105173
#       124353
#       143078
#       158050
#       169563
#       183375
#       199310
#       217723
#       235420
# 
# Disc length: 3400 seconds
# 
# Revision: 5
# Submitted via: Grip 3.3.1
# 
DISCID=be0d4610
DTITLE=The Les Humphries Singers / The Best Of
DYEAR=
DGENRE=misc
DID3=13
TTITLE0=Mama Loo
TTITLE1=We Are Goin´ Down Jordan
TTITLE2=Old Man Moses
TTITLE3=Take Care Of Me
TTITLE4=Mexico
TTITLE5=Jennifer Adam
TTITLE6=We´ll Fly You To The Promised Land
TTITLE7=Carnival
TTITLE8=Kansas City
TTITLE9=Old Time Religion
TTITLE10=Rock My Soul
TTITLE11=Sing Sang Song
TTITLE12=Do I Kill You
TTITLE13=New Orleans
TTITLE14=Do You Wanna Rock And Roll
TTITLE15=Soolaimon
EXTD=
EXTT0=
EXTT1=
EXTT2=
EXTT3=
EXTT4=
EXTT5=
EXTT6=
EXTT7=
EXTT8=
EXTT9=
EXTT10=
EXTT11=
EXTT12=
EXTT13=
EXTT14=
EXTT15=
PLAYORDER=