Last change 2020.03.01 14:20:52 / Time 2021.10.18 12:11:51

Music Database

My complete CD collection digitalized using differnent Linux tools in connection with remote CDDB databases.
These web pages give overview of content according to CDDB info.

cddb/ba0a510d.txt

# xmcd CD database file generated by Grip 3.0.7
# 
# Track frame offsets:
#       150
#       5842
#       22497
#       36900
#       55440
#       76360
#       93470
#       111075
#       125820
#       141827
#       158735
#       177397
#       191377
# 
# Disc length: 2643 seconds
# 
# Revision: 7
# Submitted via: Grip 3.0.7
# 
DISCID=ba0a510d
DTITLE=Electric Light Orchestra / Time
DYEAR=1981
DGENRE=rock
DID3=17
TTITLE0=Prologue
TTITLE1=Twilight
TTITLE2=Yours Truly, 2095
TTITLE3=Ticket To The Moon
TTITLE4=The Way Life's Meant To Be
TTITLE5=Another Heart Breaks
TTITLE6=Rain Is Falling
TTITLE7=From The End Of The World
TTITLE8=The Lights Go Down
TTITLE9=Here Is The News
TTITLE10=21st Century Man
TTITLE11=Hold On Tight
TTITLE12=Epilogue
EXTD=YEAR: 1981
EXTT0=
EXTT1=
EXTT2=
EXTT3=
EXTT4=
EXTT5=
EXTT6=
EXTT7=
EXTT8=
EXTT9=
EXTT10=
EXTT11=
EXTT12=
PLAYORDER=